Loading...
Loading...

Rick And Morty Season 3 S03 1080p 6CH WEB-DL x265-HETeam

Seeders: 8
Leechers: 1
Completed: 5,246

Age: 10 months    Visits: 445    Category: TV    Size: 2.0 GB

Posted by: Crazy4TV    Comments: Read Comments

Info Hash: ADA62428B8E724E13C99355ECACF971E7AE935DB



Now You Can Download Torrents From Kat.cr, Kickasstorrent Very Easily



Torrent Description







MediaInfo :

ID                                       : 2
Format                                   : HEVC
Format/Info                              : High Efficiency Video Coding
Format profile                           : [email protected]@Main
Codec ID                                 : V_MPEGH/ISO/HEVC
Duration                                 : 22 min 39 s
Bit rate                                 : 1 151 kb/s
Width                                    : 1 920 pixels
Height                                   : 1 080 pixels
Display aspect ratio                     : 16:9
Frame rate mode                          : Constant
Frame rate                               : 23.976 (24000/1001) FPS
Color space                              : YUV
Chroma subsampling                       : 4:2:0 (Type 0)
Bit depth                                : 8 bits
Bits/(Pixel*Frame)                       : 0.023
Stream size                              : 187 MiB (86%)
Default                                  : Yes
Forced                                   : No
Color range                              : Limited
Color primaries                          : BT.709

Audio
ID                                       : 1
Format                                   : AAC
Format/Info                              : Advanced Audio Codec
Format profile                           : HE-AAC / LC
Codec ID                                 : A_AAC
Duration                                 : 22 min 39 s
Bit rate                                 : 192 kb/s
Channel(s)                               : 6 channels
Channel positions                        : Front: L C R, Side: L R, LFE
Sampling rate                            : 48.0 kHz / 24.0 kHz
Frame rate                               : 23.438 FPS (1024 spf)
Compression mode                         : Lossy
Delay relative to video                  : 31 ms
Stream size                              : 30.8 MiB (14%)
Default                                  : Yes
Forced                                   : No

SCREENS :










Recently Added Torrents in TV

Trackers List

tracker name
udp://tracker.opentrackr.org:1337/announce
udp://tracker.leechers-paradise.org:6969/announce
udp://tracker.pirateparty.gr:6969/announce
udp://tracker.coppersurfer.tk:6969/announce
udp://tracker.mg64.net:2710/announce
udp://tracker.zer0day.to:1337/announce

Sharing Widget


Download torrent
2.0 GB
Seeders: 8
Leechers: 1
Rick And Morty Season 3 S03 1080p 6CH WEB-DL x265-HETeam